Details for this torrent 


Type SE
Warning! Use a VPN When Downloading Torrents!
Your ISP is tracking your torrent activity Including your IP Address and your Location!
We strongly recommend using ExpressVPN to anonymize your torrenting. 30 Day Money Back Guarantee!
HIDE MY IP
Game.of.Thrones.S08E01.1080p.WEB.H264-FDP
Type:
Video > TV shows
Files:
1
Size:
3.34 GiB (3588472057 Bytes)
Spoken language(s):
English
Texted language(s):
English
Tag(s):
game of thrones: got s08: game
Uploaded:
2019-04-15 06:42:15 GMT
By:
Anonymous
Seeders:
0
Leechers:
0
Comments
0  

Info Hash:
B6002F3AD8F10C5D0FE0B2B3C50FCFEF561BAFDC







(Problems with magnets links are fixed by upgrading your torrent client!)
Format : Matroska Format version : Version 4 File size : 3.34 GiB Duration : 1 h 4 min Overall bit rate : 7 408 kb/s Encoded date : UTC 2019-04-15 01:13:20 Writing application : mkvmerge v31.0.0 ('Dolores In A Shoestand') 64-bit Writing library : libebml v1.3.6 + libmatroska v1.4.9 Video ID : 1 Format : AVC Format/Info : Advanced Video Codec Format profile : [email protected] Format settings : CABAC / 4 Ref Frames Format settings, CABAC : Yes Format settings, ReFrames : 4 frames Codec ID : V_MPEG4/ISO/AVC Duration : 1 h 4 min Bit rate mode : Constant Bit rate : 6 766 kb/s Nominal bit rate : 10 000 kb/s Width : 1 920 pixels Height : 1 080 pixels Display aspect ratio : 16:9 Frame rate mode : Constant Frame rate : 23.976 (24000/1001) FPS Color space : YUV Chroma subsampling : 4:2:0 Bit depth : 8 bits Scan type : Progressive Bits/(Pixel*Frame) : 0.136 Stream size : 3.05 GiB (91%) Language : English Default : Yes Forced : No Color range : Limited Color primaries : BT.709 Transfer characteristics : BT.709 Matrix coefficients : BT.709 Audio ID : 2 Format : E-AC-3 Format/Info : Enhanced AC-3 Commercial name : Dolby Digital Plus Codec ID : A_EAC3 Duration : 1 h 4 min Bit rate mode : Constant Bit rate : 640 kb/s Channel(s) : 6 channels Channel layout : L R C LFE Ls Rs Sampling rate : 48.0 kHz Frame rate : 31.250 FPS (1536 SPF) Compression mode : Lossy Delay relative to video : 4 ms Stream size : 296 MiB (9%) Language : English Service kind : Complete Main Default : Yes Forced : No Text ID : 3 Format : UTF-8 Codec ID : S_TEXT/UTF8 Codec ID/Info : UTF-8 Plain Text Duration : 1 h 4 min Bit rate : 54 b/s Count of elements : 866 Stream size : 25.9 KiB (0%) Language : English Default : No Forced : No




Type SE
Warning! Use a VPN When Downloading Torrents!
Your ISP is tracking your torrent activity Including your IP Address and your Location!
We strongly recommend using ExpressVPN to anonymize your torrenting. 30 Day Money Back Guarantee!
HIDE MY IP

Bitcoin (BTC Only) : 1z8Tep4BNS79W3kYH8CHA8tWj6nuHYcCM
TRON (TRX Only) : 0x705c127743410c23f69e3f56ac0a654879181c41

The Pirate bay proxy List
Pirate bay proxy list
1